• 139

HiMedia HD300A Media player 開箱測試報告

過年到現在

去卡巴熊論壇注冊好幾次都失敗

輸入完都顯示下面的亂碼

Bz URL ɦAoͿ~Cгsztκ޲z
請問用機器格式化硬碟無法 變成ext3的格式? 是什麼原因?

另外幾ui 五ui 兩ui

到底有什麼差異?
我是愛德華

chun777 wrote:
刷1.0.4.6 韌...(恕刪)


怪了,我是用1.0.4.6diy的版本,看迅雷跟PPS都沒問題,
會不會是跟個別的不同的ISP有關呢?本人是台中威達wimax的。
最近有想入手300A
想請問先鋒520K會跟300A有衝突嗎?
另外我想問一下影片的關係 剛看到有人提到影片必須是某種格式才能有次世代音效
是真的嗎??????? 有限制嗎
想請問在pc 上可以播放, 在高清機上無法播放該 flv 線上影片,
會出現 出現 "解析度不支援" 的錯誤訊息, 要怎麼解決?


PC 播放顯示媒體訊內容如下:

General
Complete name : D:\http___94.198.240.221_flv_112d0b0ac2fde87676f0d40ec8a64ae0_4d69ac36_81717.flv
Format : Flash Video
File size : 44.2 MiB
Duration : 12mn 35s
Overall bit rate : 490 Kbps
Tagging application : Yet Another Metadata Injector for FLV - Version 1.6
Video
Format : VP6
Duration : 12mn 35s
Bit rate : 416 Kbps
Width : 720 pixels
Height : 480 pixels
Display aspect ratio : 1.500
Frame rate : 25.000 fps
Standard : NTSC
Bits/(Pixel*Frame) : 0.048
Stream size : 38.6 MiB (87%)
Audio
Format : MPEG Audio
Format version : Version 2
Format profile : Layer 3
Duration : 12mn 35s
Bit rate mode : Constant
Bit rate : 56.0 Kbps
Channel(s) : 1 channel
Sampling rate : 22.05 KHz
Resolution : 16 bits
Stream size : 5.38 MiB (12%)
Writing library : LAME3.98.4
max32002 wrote:
想請問在pc 上可以...(恕刪)


Flash video

FLV 最高支援 25fps 640x360

FLV On2 VP6 最高支援 25fps 640x360 <<除海美迪之外 , 大概沒超過三家有支援 On2 VP6

Audio: MP3, 96 kbps 44100 Hz 16 bit


這個免費的五核心軔體目前測試起來很好用

2011年2月23日更新

增加網友善男的rtmp三個文件,兼容cntv和威視直播。

下載地址: http://u.115.com/file/f9b76291a#


a、第一UI海美迪1.0.3.10+Web2.0固件,替換通用版Voole,
增加海信版迅雷,SC21、PPS、HDPfans視頻,本地MMS電視可看,
但看不了haoIMS,鳳凰衛視可看;音視頻解碼能力很強,
一鍵播放音樂也有,但沒有自動播放能力;
b、第二UI , T10s的UI,可試試藍鉅固件的書籤,不錯的
c、第三UI海美迪最穩定的固件1.0.3.35版,無線連接方面比新固件好,
色彩、音頻方面比新固件強不少,也可看好多IMS網絡視頻;
d、第四UI主要用於u盤音樂自動播放,另在本UI中移植了海信的迅雷看看新界面,
PPS在此UI中可看。
e、海信的新韌體,東方寬頻、新浪音樂、天氣、新聞、股票和免费IMS。

原始資料請參照 http://www.hdpfans.com/thread-5339-1-1.html
請問一下.為啥我的300A不能輸出次世代音效呢
我是在P家購買的 也確定它的晶片是1073DD+
我有更新到1.0.4.6 還是不行
音效都只出現DTS而已....不知道是影片本身沒有還是.............

影片是:Malditos Bastardos (2009) [BDRemux 1080p][DTS-HD]
擴大機是先鋒520K 請問是在美迪那邊設定嗎?
小弟今天才到貨 所以還是新手 請幫忙解惑一下 謝謝
確認訊號源是有次世代的檔案嗎?
有一說MKV檔的次世代解不出來
我下載的REMUXE都可以解出

llkk406 wrote:
確認訊號源是有次世代...(恕刪)


可是我用KMP看影片 選擇音效有DTS-HD可以選擇
完了....該不會挑擴大機吧...還是軟體版本有問題啊
  • 139
評分
複製連結
請輸入您要前往的頁數(1 ~ 139)